#TITLE:Ganon Slayer;
#SUBTITLE:The Legend of Zelda;
#ARTIST:The Mad Hatter;
#TITLETRANSLIT:;
#SUBTITLETRANSLIT:;
#ARTISTTRANSLIT:;
#CREDIT:;
#BANNER:Ganon Slayer.jpg;
#BACKGROUND:Ganon Slayer-bg.jpg;
#LYRICSPATH:;
#CDTITLE:tsukacdtitle.png;
#MUSIC:Ganon Slayer.mp3;
#OFFSET:0.940;
#SAMPLESTART:75.620;
#SAMPLELENGTH:12.000;
#SELECTABLE:YES;
#BPMS:0.000=113.000;
#STOPS:;
#BGCHANGES:;
// cache tags:
#FIRSTBEAT:4.000;
#LASTBEAT:236.000;
#SONGFILENAME:Songs/Music V.I.P ^_^/Ganon Slayer (Tsuka)/Ganon Slayer.sm;
#HASMUSIC:1;
#HASBANNER:1;
#MUSICLENGTH:128.182;
// end cache tags

//---------------dance-single - ----------------
#NOTES:
     dance-single:
     :
     Hard:
     10:
     1.000,0.875,1.000,0.382,0.768,603.000,251.000,49.000,0.000,14.000:

0000
0000
0000
0000
,
2100
0000
0000
0000
0000
0000
0000
0000
0010
0000
0000
0000
0000
0000
0000
0000
0001
0000
0000
0000
3200
0000
0000
0300
0200
0000
0000
0000
0320
0000
0000
0000
,
0032
2003
3020
0000
0100
0000
0000
0000
1000
0000
0000
0000
0000
0000
0000
0000
,
2130
0000
0000
0000
0000
0000
0000
0000
0001
0000
0000
0000
0000
0000
0000
0000
0010
0000
0000
0000
3200
0000
0000
0300
0200
0000
0000
0000
0320
0000
0000
0000
,
0031
1000
0200
0000
1000
0000
0000
0000
0010
0000
0000
0000
0301
0000
0000
0000
,
1001
0000
1000
0001
1000
0000
0001
1000
0001
0000
1000
0001
1000
0100
1000
0001
,
1000
0000
0001
1000
0001
0000
1000
0001
1000
0000
0001
1000
0001
0100
0001
1000
,
0101
0000
0100
0000
1010
0000
0101
1000
0010
1000
0100
0010
1001
0000
0010
0000
,
1100
0010
0001
0100
1010
0000
1001
0000
1100
0001
0000
0101
0000
0000
1000
0010
,
0100
0000
0001
1000
1010
0000
1100
0001
0101
1000
1010
0100
1001
0000
1001
0000
,
0000
0000
1000
0010
0100
0000
0101
1000
1010
0001
0110
0000
0110
0000
1001
0000
,
1000
0100
1000
0010
1001
0001
1000
0100
0010
0101
1000
0010
1100
0000
0010
0100
,
1000
0010
0100
0001
1100
0000
1000
0001
0100
1010
0100
0011
1100
0000
1000
0010
,
0100
0000
0001
0000
1100
0000
1010
0000
0011
0000
0101
1001
0000
0000
1000
0001
,
1000
0010
0100
0010
1001
0010
0100
0010
1001
0000
1010
0000
1100
0000
1000
0100
,
0011
0000
1000
0101
1001
0000
0000
0100
1010
0001
1100
0010
0101
0000
0010
0000
,
1001
0010
1100
0001
1010
0000
1001
0000
0101
1100
0101
0110
0000
0000
0001
0100
,
1001
0100
0010
1000
0100
0011
0100
1000
1001
0000
0011
0000
1001
0000
1010
0000
,
0000
0010
1000
0001
0100
0010
1000
0100
1010
0100
1000
0001
1100
0010
0101
0000
,
1100
0000
0101
0000
0110
0000
1100
0000
1000
0001
1010
0100
1001
0000
0000
1000
,
0001
0100
0010
0100
1001
0010
0100
0001
1000
0010
0101
0000
1001
0000
0000
0000
,
2100
3010
0102
0013
2010
3100
0012
0103
,
1001
0000
0100
0000
0010
1000
0100
0000
0010
0001
0100
0000
1010
0000
0200
0000
,
1301
0000
1000
0010
0101
0000
1010
0000
1100
0001
0110
0000
1001
0000
0101
0000
,
0010
0101
1000
0010
1100
0001
0010
0100
1100
0011
0000
1001
0000
0000
0110
0001
,
1000
0000
0011
0000
1010
0000
1100
0010
0101
0000
0011
0000
0110
0000
1100
0000
,
0102
0000
1003
0000
0101
0000
1100
0001
0100
0010
1001
0000
1100
0000
0102
0000
,
1103
1010
1001
1100
0011
1001
0101
0120
,
1031
0001
0010
0100
0010
0001
2000
0000
0000
0000
3011
0000
0101
0000
0000
0000
,
1001
0000
0011
0100
1010
0000
1100
0000
1010
0000
0011
0000
1001
0000
0000
0001
,
1100
0000
0101
0000
1010
0100
0011
0000
1100
0000
1001
0000
0011
0000
0101
1000
,
0012
0000
0000
0000
0000
0000
0000
0000
0100
0000
0000
0000
0000
0000
0000
0000
1000
0000
0000
0000
0023
0000
0000
0030
0020
0000
0000
0000
0230
0000
0000
0000
,
2300
3002
0203
0000
0010
0000
0000
0000
0001
0000
0000
0000
0000
0000
0000
0000
,
0312
0000
0000
0000
0000
0000
0000
0000
1000
0000
0000
0000
0000
0000
0000
0000
0100
0000
0000
0000
0023
0000
0000
0030
0020
0000
0000
0000
0230
0000
0000
0000
,
2300
3002
0023
0000
0001
0000
0000
0000
0100
0000
0000
0000
1030
0000
0000
0000
,
1001
0000
0001
0100
0010
0000
1000
0100
0010
0000
0001
0100
0010
1000
0100
0010
,
1001
0000
1000
0100
0010
0000
0001
0100
0010
0000
1000
0100
0010
0001
0100
0010
,
1001
0000
1000
0010
0101
0000
0001
1000
0101
0000
1100
0000
2010
0000
3101
0010
,
1100
0000
0101
0010
1000
0100
0011
0000
1001
0000
1100
0000
1001
0000
1001
0000
,
0012
0000
1103
0000
0010
0001
0100
0010
1100
0010
0101
0000
0101
0000
0000
2100
,
3002
0213
0300
0010
0002
0000
0203
0320
1130
0000
1000
0001
1100
0000
0000
0000
,
1001
0100
0010
1000
0101
0000
0100
0000
1001
0010
0100
0001
1100
0000
0010
0000
,
1001
0010
0100
0001
1010
0100
0001
0010
1001
0010
0100
1000
0011
1000
0010
0100
,
1001
0100
0010
1000
0101
0000
1000
0010
1001
0000
0001
0110
1100
0000
0000
0000
,
1001
0000
0010
0000
1010
0100
0001
0010
1001
0000
0100
0000
0011
0000
2100
0000
,
3011
0100
0010
1000
0101
1000
0010
0100
1001
0000
0010
0000
1100
0000
0010
0000
,
1001
0010
0001
0100
1010
0100
0001
0010
1001
0000
1100
0000
0011
0000
0100
0010
,
1001
0100
0010
1000
0011
1000
0010
0100
0011
0000
1100
0000
0101
0000
0000
0100
,
0001
1000
0000
1100
0010
0100
0011
0000
1100
0000
0110
0000
1001
0000
0120
0000
,
1130
0000
0001
0100
1010
0000
0101
0000
1001
0000
1010
0100
0011
0000
0000
0000
,
1001
0100
0010
1000
0101
0010
1001
0000
1001
0010
1100
0000
0110
0000
0000
0010
,
1001
0010
1000
0100
1010
0000
0010
0000
1001
0100
0011
0000
0110
0000
0000
0000
,
0000
1000
0010
0100
1010
0001
0010
0100
1001
0100
2001
0000
0000
3101
0000
0000
,
1001
0000
0000
0101
1010
0000
1100
0110
1001
0000
0110
1100
0011
0000
0000
0000
,
1001
0010
0100
0010
0101
1000
0100
0010
1001
0010
0100
0001
1100
0010
0001
0100
,
1001
0010
1000
0100
0100
0000
0000
0000
1001
0010
1100
0000
0011
0000
0000
0000
,
1001
0010
0100
0001
1100
0000
0000
0001
1010
0100
0011
1000
0110
0000
0000
0000
,
1001
0100
0010
1100
0000
1001
0000
0000
0011
0110
1100
0000
1001
0000
0000
0000
,
2010
0000
3101
0000
1001
0000
1010
0000
0011
1010
1100
0001
2200
0000
0000
0000
,
3300
0000
0000
0000
;
